Категории
Добро пожаловать на музыкальный торрент трекер без регистрации - Sound-Park  ι  Стать пользователем  ι  Войти  ι  Напомнить пароль?

Velvet Moon - Catch The Wave (Lossless, Hi Res 2020)

Folk
 
Дата: 13 февраля 2020
Добавил: StasOn11
Просмотров: 571
  • ИСПОЛНИТЕЛЬ: Velvet Moon
  • АЛЬБОМ / НАЗВАНИЕ: Catch The Wave
  • ГОД / ДАТА ВЫХОДА: January 24, 2020
  • ТОЧНЫЙ ЖАНР(Ы): Folk
  • ЛЕЙБЛ: Epidemic Sound
  • ПРОДОЛЖИТЕЛЬНОСТЬ: 00:28:38
  • ФОРМАТ: FLAC, (tracks) 24 bits, 48 KHz
  • КАЧЕСТВО: Lossless

  • РЕЙТИНГ: 10 / 7    
  • ГОЛОСОВАТЬ:

  • СКАЧАТЬ: ПРЯМАЯ ССЫЛКА НА ТОРРЕНТ
  • СИДЫ:

Описание альбома



◈ 01 - Wicked One (00:04:10)
◈ 02 - Catch the Wave (00:06:43)
◈ 03 - Call Me out Tiger (00:03:34)
◈ 04 - Weights Can't Lift You Up (00:03:28)
◈ 05 - Hush You (00:03:17)
◈ 06 - Herbal Tea (00:03:10)
◈ 07 - Balcony (00:04:13)

Qobuz


foobar2000 1.4.2 / Dynamic Range Meter 1.1.1
log date: 2020-02-10 19:34:22

--------------------------------------------------------------------------------
Analyzed: Velvet Moon / Catch The Wave
--------------------------------------------------------------------------------

DR Peak RMS Duration Track
--------------------------------------------------------------------------------
DR6 -0.10 dB -8.27 dB 4:11 01-Wicked One
DR6 -0.19 dB -7.91 dB 6:43 02-Catch the Wave
DR7 -0.10 dB -9.19 dB 3:35 03-Call Me out Tiger
DR5 -0.19 dB -7.59 dB 3:28 04-Weights Can't Lift You Up
DR6 -0.10 dB -9.09 dB 3:18 05-Hush You
DR7 -0.10 dB -10.12 dB 3:11 06-Herbal Tea
DR7 0.00 dB -8.02 dB 4:13 07-Balcony
--------------------------------------------------------------------------------

Number of tracks: 7
Official DR value: DR6

Samplerate: 48000 Hz
Channels: 2
Bits per sample: 24
Bitrate: 1706 kbps
Codec: FLAC
================================================================================



Комментарии (5)


15 февраля 2020
woollies66   
0 
PR:XCityXXX GBXXX GBПостовХС
В
Л
Х

Thanks for the download


15 февраля 2020
kbp   
0 
PR:XCityXXX GBXXX GBПостовХС
В
Л
Х

Спасибо!


14 февраля 2020
chinchetas3q   
0 
PR:XCityXXX GBXXX GBПостовХС
В
Л
Х

Muchas gracias!


13 февраля 2020
джумба   
+1 
PR:XCityXXX GBXXX GBПостовХС
В
Л
Х

Спасибо!


13 февраля 2020
Phantastych   
+1 
PR:XCityXXX GBXXX GBПостовХС
В
Л
Х

Thank you



 

Please enable Javascript!
Пожалуйста включите Javascript, иначе данный и другие сайты могут работать не корректно! Узнать как включить Javascript можно на Google Support